#TITLE:Explosive;
#SUBTITLE:SDO Malaysia;
#ARTIST:Bond;
#TITLETRANSLIT:;
#SUBTITLETRANSLIT:;
#ARTISTTRANSLIT:;
#CREDIT:;
#BANNER:bn.png;
#BACKGROUND:bg.png;
#LYRICSPATH:;
#CDTITLE:cd.png;
#MUSIC:Explosive.mp3;
#OFFSET:0.000;
#SAMPLESTART:33.500;
#SAMPLELENGTH:12.000;
#SELECTABLE:YES;
#DISPLAYBPM:115.000;
#BPMS:0.000=115.003,1.000=114.998,3.000=115.003,4.000=114.998,6.000=115.003,7.000=114.998,9.000=115.003,10.000=114.998,13.000=115.003,14.000=114.998,16.000=115.003,17.000=114.998,19.000=115.003,20.000=114.998,23.000=115.003,24.000=114.998,26.000=115.003,27.000=114.998,29.000=115.003,30.000=114.998,32.000=115.003,33.000=114.998,36.000=115.003,37.000=114.998,39.000=115.003,40.000=114.998,42.000=115.003,43.000=114.998,46.000=115.003,47.000=114.998,49.000=115.003,50.000=114.998,52.000=115.003,53.000=114.998,56.000=115.003,57.000=114.998,59.000=115.003,60.000=114.998,62.000=115.003,63.000=114.998,65.000=115.003,66.000=114.998,69.000=115.003,70.000=114.998,72.000=115.003,73.000=114.998,75.000=115.003,76.000=114.998,79.000=115.003,80.000=114.998,82.000=115.003,83.000=114.998,85.000=115.003,86.000=114.998,88.000=115.003,89.000=114.998,92.000=115.003,93.000=114.998,95.000=115.003,96.000=114.998,98.000=115.003,99.000=114.998,102.000=115.003,103.000=114.998,105.000=115.003,106.000=114.998,108.000=115.003,109.000=114.998,112.000=115.003,113.000=114.998,115.000=115.003,116.000=114.998,118.000=115.003,119.000=114.998,121.000=115.003,122.000=114.998,125.000=115.003,126.000=114.998,128.000=115.003,129.000=114.998,131.000=115.003,132.000=114.998,135.000=115.003,136.000=114.998,138.000=115.003,139.000=114.998,141.000=115.003,142.000=114.998,144.000=115.003,145.000=114.998,148.000=115.003,149.000=114.998,151.000=115.003,152.000=114.998,154.000=115.003,155.000=114.998,158.000=115.003,159.000=114.998,161.000=115.003,162.000=114.998,164.000=115.003,165.000=114.998,167.000=115.003,168.000=114.998,171.000=115.003,172.000=114.998,174.000=115.003,175.000=114.998,177.000=115.003,178.000=114.998,180.000=115.003,181.000=114.998,184.000=115.003,185.000=114.998,187.000=115.003,188.000=114.998,191.000=115.003,192.000=114.998,194.000=115.003,195.000=114.998,197.000=115.003,198.000=114.998,201.000=115.003;
#STOPS:;
#BGCHANGES:;
// cache tags:
#FIRSTBEAT:0.000;
#LASTBEAT:200.750;
#SONGFILENAME:Songs/Super Dancer Online/Explosive/Explosive.sm;
#HASMUSIC:1;
#HASBANNER:1;
#MUSICLENGTH:105.621;
// end cache tags

//---------------dance-single - ----------------
#NOTES:
     dance-single:
     :
     Medium:
     18:
     1.000,1.000,1.000,0.710,1.000,586.000,280.000,75.000,0.000,177.000:
1000
0100
0010
0001
2000
0000
0000
0000
0000
0000
3020
0000
0000
0000
0000
0000
,
2030
0000
0000
0000
0000
3020
0000
0000
0000
0000
0000
0000
0032
0000
0000
0000
,
0000
2003
0000
3002
0000
0000
0000
0000
,
0000
0000
0000
0003
0000
0000
0000
0000
,
0000
0001
0010
0100
1000
0002
0000
0000
0000
0000
0003
0200
0000
0000
0000
0000
,
0000
2300
0000
0000
0000
3020
0000
0000
0000
0000
0000
0032
0000
0000
0000
0000
,
0000
0203
0000
0000
0000
2302
0000
0000
0000
0000
0000
0000
0000
0000
0000
0000
,
3003
0000
0000
0000
0011
1100
0000
1100
0011
0000
0101
1010
0000
1010
0101
0000
,
1021
0000
0031
0010
0100
1000
0100
0010
1101
0000
1000
0100
0010
0001
1110
0000
,
1111
0000
0000
0000
0001
0010
0100
1000
0111
0000
0001
0010
0100
1000
1011
0000
,
1111
0000
0000
0000
1000
0100
0010
0001
1110
0000
1000
0100
0010
0001
1101
0000
,
1111
0000
0000
0000
0001
0010
0100
1000
1011
0000
0001
0010
0100
1000
0100
0010
,
0100
0010
0001
0010
0102
1000
0100
0010
1103
0000
2100
0010
0001
0010
3101
0000
,
1112
0000
0000
0000
1213
0001
1010
0001
1310
0000
0121
1000
0101
1000
0101
1000
,
0132
0000
0000
0000
2013
0101
0010
0101
3010
0000
1000
0100
0010
0001
1011
0000
,
1111
0000
0000
0000
0001
0010
0100
1000
1011
0000
1000
0100
0010
0001
1101
0000
,
0001
0010
0100
1000
2011
0100
0001
0100
3001
0000
1102
0010
1000
0010
1003
0000
,
2111
0000
0000
0000
3120
1001
0100
1001
0130
0000
0210
1001
0010
1001
0010
0000
,
2311
0000
0000
0000
3001
0010
0100
1010
0021
0000
0031
0010
0100
0010
1001
0010
,
0100
0010
0101
0010
0100
1000
0100
1001
0100
0010
0100
0010
0001
0010
1100
0010
,
0001
0010
0100
1001
0100
0010
0001
0010
0101
0010
0001
0010
0100
0010
0100
1010
,
0100
0010
0001
0010
0100
1000
0100
0011
1022
0000
1133
0001
0010
1100
0001
0010
,
0100
1000
0101
0010
0100
1000
0101
1110
0022
0000
1133
0001
1010
0001
0010
0100
,
1000
0011
0100
1000
0100
0010
0100
0011
0022
0000
1133
0100
0010
1101
0010
0100
,
0010
0100
0010
0100
1000
0100
0010
1001
0022
0000
1133
0001
0010
0100
1010
0100
,
0011
0001
1000
0100
0010
2001
3010
0100
1020
0130
0010
0002
1013
0100
2010
3100
,
1111
0000
1111
0000
0001
1010
0100
0010
1011
0000
0010
0100
0010
0001
0010
0100
,
0010
1001
0010
0100
1001
0100
0010
0100
0010
0001
0010
0101
0010
0100
1000
0101
,
0010
0100
0010
0001
0010
1100
0010
0001
0010
1100
0010
0001
0010
0100
0011
0100
,
1001
0100
0010
0001
0010
0100
1000
1011
2201
0000
3311
1000
0100
0011
0100
1000
,
0100
0011
1100
0010
1001
0010
1100
0010
2201
0000
3311
1000
0100
0010
0101
0010
,
1100
0010
0001
0010
0100
0011
0100
1000
0100
0011
0100
1000
0100
0011
0100
1000
,
0100
0010
0001
0010
0100
1011
0100
0010
0001
0010
0100
1000
0100
1111
0010
0100
,
0010
0001
0010
0100
1001
0100
0010
1011
2201
0000
3311
0001
0010
1100
0010
0001
,
1110
0100
0010
0101
1010
0111
1110
0111
2210
0000
3311
1101
0111
1110
0111
1110
,
0110
1101
0011
1100
1101
0111
0110
1011
2210
0000
3311
1011
0111
0101
1110
1101
,
1110
0101
0111
1011
1101
0111
1110
1011
2210
0000
3311
1011
1101
1011
1110
1011
,
0111
1101
1011
0111
1101
0011
0110
1100
0110
0011
0110
1011
0110
1100
0110
0011
,
1101
0000
0000
0000
1012
1010
1010
1010
1013
0000
2101
0101
0101
0101
3101
0000
,
1111
0000
1111
0000
1201
1001
1001
1001
1301
0000
1021
1001
1001
1001
1031
0000
,
0011
0110
1100
0011
2110
0011
0110
0011
3110
0000
1012
0110
1010
0110
1013
0000
,
2111
0000
0000
0000
3121
1001
0101
1001
0131
0000
1201
0011
1001
0011
1301
0000
,
2111
0000
0000
0000
3112
0010
0110
0010
1113
0000
1100
0110
0011
0110
1100
0000
,
1011
0000
0000
0000
0110
0010
0110
0100
0110
0000
1100
1000
0110
0001
0011
0000
,
1110
0111
1110
0111
1112
1000
1000
1000
1003
0000
2111
0001
0001
0001
3001
0000
,
1112
0000
0000
0000
1213
0001
0001
0001
0301
0000
1121
1000
1000
1000
1000
0000
,
1132
0000
0000
0000
1013
0100
0010
0001
1110
0000
0101
0010
0100
1000
0111
0000
,
1111
0000
1111
0000
1100
0011
0110
1100
0011
0000
0011
1100
0110
0011
1100
0000
,
1111
0000
1111
0000
1101
1011
0111
1110
1111
0000
1011
1101
1110
0111
1111
0000
,
1001
0000
0110
0000
2222
0000
0000
0000
0000
0000
0300
0000
0000
3000
0000
0000
,
0003
0000
0000
0030
0000
0000
0000
0000
0000
0000
0000
0000
0000
0000
0000
0000
;

//---------------dance-single - ----------------
#NOTES:
     dance-single:
     :
     Hard:
     26:
     1.000,1.000,1.000,0.672,1.000,584.000,564.000,71.000,0.000,242.000:

1100
0100
0010
0001
2000
0000
0000
0000
0000
0000
3020
0000
0000
0000
0000
0000
,
2030
0000
0000
0000
0000
3020
0000
0000
0000
0000
0000
0000
0032
0000
0000
0000
,
0000
2003
0000
3002
0000
0000
0000
0000
,
0000
0000
0000
0003
0000
0000
0000
0000
,
0000
0011
0001
0100
1000
0002
0000
0000
0000
0000
0003
0200
0000
0000
0000
0000
,
0000
2300
0000
0000
0000
3020
0000
0000
0000
0000
0000
0032
0000
0000
0000
0000
,
0000
0203
0000
0000
0000
2302
0000
0000
0000
0000
0000
0000
0000
0000
0000
0000
,
3003
0000
0000
0000
1111
0110
0000
0110
1111
0000
1111
0110
0000
0110
1111
0000
,
1121
0000
1130
0011
1100
0110
1100
0101
0110
0000
1010
1100
0110
0101
0110
0000
,
1001
0000
0000
0000
1100
0110
1100
0101
0110
0000
1010
1100
0110
0101
0110
0000
,
1001
0000
0000
0000
1100
0110
1100
0101
0110
0000
1010
1100
0110
0101
0110
0000
,
1001
0000
0000
0000
0011
0110
0011
1010
0110
0000
0101
0011
0110
1010
0110
0101
,
1010
0111
1110
0111
1112
1100
1100
1100
1103
0000
2111
0011
0011
0011
3011
0000
,
1102
0000
0000
0000
1213
0011
0011
0011
0311
0000
1121
1100
1100
1100
1100
0000
,
1132
0000
0000
0000
2113
0110
0110
0110
3110
0000
1100
0110
1111
1100
0011
0000
,
1001
0000
0000
0000
0110
0110
0110
0110
1111
0000
0011
0101
1111
0110
1001
0000
,
0101
1110
0111
1110
2111
0011
0011
0011
3011
0000
1112
1100
1100
1100
1103
0000
,
2011
0000
0000
0000
3121
1100
1100
1100
1130
0000
1211
0011
0011
0011
0011
0000
,
2311
0000
0000
0000
3111
0110
0011
1010
0021
0000
1131
0011
0110
0011
0110
1100
,
1111
1100
0101
0011
0110
1100
0110
0011
0110
0011
0110
0011
1010
0110
1001
0011
,
1111
1010
1100
0110
1001
0011
0110
1100
1011
1100
1010
0110
0011
0110
0011
1001
,
1111
0110
1100
0110
0011
0101
0011
1001
1022
0000
1133
0101
0110
1100
0011
0110
,
0011
1100
0011
1010
1001
1100
0101
1010
0022
0000
1133
0101
1001
1010
0110
1100
,
1101
1001
1100
0101
1010
1100
0011
0101
0022
0000
1133
0101
0011
1100
0011
0110
,
1101
1011
0011
1001
0110
1100
0011
0110
0022
0000
1133
0101
0011
1010
0011
0101
,
1101
1001
1100
0110
1111
0111
1000
0111
1111
0000
1110
1011
1101
1111
0111
1110
,
1111
0000
1111
0000
0011
1010
0101
1010
1011
0000
0011
1100
0110
1100
0110
0011
,
0111
0011
1010
1100
1001
1100
0110
0101
1011
1100
0110
1100
0011
1001
0110
0101
,
1011
0011
1010
1100
1001
1100
0011
0110
1011
1100
0101
0110
1100
0110
1100
1001
,
0111
0110
0011
0110
1100
1010
1100
1001
2201
0000
3311
1010
0110
0011
1100
0110
,
1100
0011
1100
0101
1001
0011
1010
0110
2201
0000
3311
1010
1001
0101
0110
0011
,
1101
1001
0011
1010
0101
0011
1100
1010
0111
1100
0011
1010
1100
0101
1100
0110
,
0111
0101
1100
1001
0110
0011
1100
0110
0111
1100
0011
1010
1100
0101
1100
0101
,
0111
0011
0110
1100
1001
1100
0110
0011
2201
0000
3311
1100
1010
1100
1001
0011
,
1111
1111
1111
1111
0110
0011
0110
1001
2210
0000
3311
1011
0011
0101
0110
1100
,
0110
0101
0011
0110
1101
0011
0110
1001
2210
0000
3311
1011
0011
0101
0110
1100
,
0110
0101
0011
0110
1101
0011
0110
1001
2210
0000
3311
1011
0011
0101
0110
1100
,
0110
0101
0011
0110
1101
0011
0110
1100
1001
0011
0110
1010
0011
0111
1100
0110
,
1111
0000
0000
0000
1112
1110
1110
1110
1113
0000
2111
0111
0111
0111
3111
0000
,
1011
0000
1101
0000
1211
1011
1011
1011
1311
0000
1121
1101
1101
1101
1131
0000
,
0101
1110
0111
1110
2111
0011
0011
0011
3011
0000
1112
1100
1100
1100
1103
0000
,
2011
0000
0000
0000
3121
1100
1100
1100
1130
0000
1211
0011
0011
0011
0011
0000
,
2311
0000
0000
0000
3112
0110
0110
0110
0113
0000
1100
0110
1111
1100
0011
0000
,
1001
0000
0000
0000
0110
0110
0110
0110
1111
0000
1100
1010
1111
0110
1001
0000
,
1010
0111
1110
0111
1112
1100
1100
1100
1103
0000
2111
0011
0011
0011
3011
0000
,
1102
0000
0000
0000
1213
0011
0011
0011
0311
0000
1121
1100
1100
1100
1100
0000
,
1132
0000
0000
0000
1113
0111
1110
0111
1110
0000
0111
1110
0111
1110
0111
0000
,
1111
0000
1111
0000
1110
0111
1110
0111
1110
0000
0111
1110
0111
1110
0111
0000
,
1111
0000
1111
0000
1101
1011
1101
1011
1101
0000
1011
1101
1011
1101
1011
0000
,
1001
0110
2222
0000
0000
3333
0000
0000
;
